Marnie 1964 720p BrRip x265 HEVCBay torrent download

seeders: 11
leechers: 244
updated:
Added ago by g3m696 ***** in Movies
Torrent Downloaded 10 times.
Info Hash: ADE6C7C9B1458F87DBECE59E627585F6CBCF6ADA


Torrent Files

Marnie 1964 720p BrRip x265 HEVCBay (Size: 572.8 MB)
  Marnie 1964 720p BrRip x265 HEVCBay 572.8 MB

Torrent Description



hevcbay.com

Code:

General
Unique ID : 99421985751772706121390787154675556031 (0x4ACBFA5ADD3DBC9B5F3EC5AB30BCDEBF)
Complete name : Marnie.1964.720p.BrRip.x265.HEVCBay.com.mkv
Format : Matroska
Format version : Version 4
File size : 573 MiB
Duration : 2 h 10 min
Overall bit rate : 614 kb/s
Movie name : Marnie.1964.720p.BrRip.x265.HEVCBay.com.mkv
Encoded date : UTC 2019-02-11 00:37:46
Writing application : hevcbay
Writing library : hevcbay.com / Lavf58.22.100
Comment : Encoded by hevcbay.com
ENCODED-BY : hevcbay.com

Video
ID : 1
Format : HEVC
Format/Info : High Efficiency Video Coding
Format profile : [email protected]@Main
Codec ID : V_MPEGH/ISO/HEVC
Duration : 2 h 10 min
Bit rate : 565 kb/s
Width : 1 280 pixels
Height : 694 pixels
Display aspect ratio : 1.85:1
Original display aspect ratio : 1.85:1
Frame rate mode : Constant
Frame rate : 23.976 (23976/1000) FPS
Color space : YUV
Chroma subsampling : 4:2:0
Bit depth : 8 bits
Bits/(Pixel*Frame) : 0.027
Stream size : 527 MiB (92%)
Writing library : Lavc58.40.100 libx265
Default : Yes
Forced : No
Color range : Limited

Audio
ID : 2
Format : AAC LC SBR PS
Format/Info : Advanced Audio Codec Low Complexity with Spectral Band Replication and Parametric Stereo
Commercial name : HE-AACv2
Format settings : NBC
Codec ID : A_AAC-29
Duration : 2 h 10 min
Bit rate : 48.0 kb/s
Channel(s) : 2 channels
Channel layout : C
Sampling rate : 48.0 kHz
Frame rate : 23.438 FPS (2048 SPF)
Compression mode : Lossy
Delay relative to video : -148 ms
Stream size : 44.0 MiB (8%)
Writing library : Lavc58.40.100 libfdk_aac
Language : English
Default : Yes
Forced : No








Related Torrents

torrent name size age seed leech
115.0 MB 55 seconds 15 156
180.6 MB 55 seconds 169 490
136.6 MB 6 minutes 334 9
871.84 MB 7 minutes 450 163
1.46 GB 7 minutes 328 140

Sharing Widget


Download torrent
572.8 MB
seeders:1214
leechers:386
Marnie 1964 720p BrRip x265 HEVCBay



To share this torrent use the code below and insert it into comments, status messages, forum posts or your signature.

Torrent: Marnie 1964 720p BrRip x265 HEVCBay

Comments

Latest Searches