Destroyer 2019 DVDSCR XviD B4ND1T69 torrent download

seeders: 480
leechers: 184
updated:
Added ago by B4ND1T69 ***** in Movies
Torrent Downloaded 10 times.
Info Hash: 007B7A6411F8F4E0046FBD6762C1CA50812A8A86


Torrent Files

Destroyer 2019 DVDSCR XviD B4ND1T69 (Size: 768.8 MB)
  Destroyer 2019 DVDSCR XviD B4ND1T69 768.8 MB

Torrent Description



Destroyer.2019.DVDSCR.XviD.B4ND1T69



Director: Karyn Kusama
Writers: Phil Hay (screenplay), Matt Manfredi (screenplay)
Stars: Nicole Kidman, Toby Kebbell, Tatiana Maslany

Plot/Story:
Destroyer follows the moral and existential odyssey of LAPD detective Erin Bell who, as a young cop, was placed undercover with a gang in the California desert with tragic results. When the leader of that gang re-emerges many years later, she must work her way back through the remaining members and into her own history with them to finally reckon with the demons that destroyed her past.

General
Complete name : Destroyer.2019.DVDSCR.XviD.B4ND1T69.avi
Format : AVI
Format/Info : Audio Video Interleave
File size : 769 MiB
Duration : 2 h 0 min
Overall bit rate : 891 kb/s
Writing application : Lavf54.63.104
Subtitles : NA
Source : EVO...thanks.

Video
ID : 0
Format : MPEG-4 Visual
Format profile : Advanced [email protected]
Format settings, BVOP : 2
Format settings, QPel : No
Format settings, GMC : No warppoints
Format settings, Matrix : Default (H.263)
Codec ID : XVID
Codec ID/Hint : XviD
Duration : 2 h 0 min
Bit rate : 750 kb/s
Width : 688 pixels
Height : 288 pixels
Display aspect ratio : 2.40:1
Frame rate : 23.976 (24000/1001) FPS
Color space : YUV
Chroma subsampling : 4:2:0
Bit depth : 8 bits
Scan type : Progressive
Compression mode : Lossy
Bits/(Pixel*Frame) : 0.158
Stream size : 647 MiB (84%)
Writing library : XviD 64

Audio
ID : 1
Format : MPEG Audio
Format version : Version 1
Format profile : Layer 3
Codec ID : 55
Codec ID/Hint : MP3
Duration : 2 h 0 min
Bit rate mode : Constant
Bit rate : 128 kb/s
Channel(s) : 2 channels
Sampling rate : 48.0 kHz
Compression mode : Lossy
Stream size : 110 MiB (14%)
Alignment : Aligned on interleaves
Interleave, duration : 24 ms (0.58 video frame)

Screenshots:










Please Seed For As Long As Possible
Or At Least 1:1 Ratio...Thanks
Enjoy Peeps



Related Torrents

torrent name size age seed leech
639.9 MB 3 minutes 791 215
1.1 GB 3 minutes 90 68
1.8 GB 5 minutes 147 343
324.2 MB 5 minutes 13 47
216.1 MB 7 minutes 363 476

Sharing Widget


Download torrent
768.8 MB
seeders:1214
leechers:386
Destroyer 2019 DVDSCR XviD B4ND1T69



To share this torrent use the code below and insert it into comments, status messages, forum posts or your signature.

Torrent: Destroyer 2019 DVDSCR XviD B4ND1T69

Comments

Latest Searches