Black Narcissus 1947 1080p BrRip x265 HEVCBay torrent download

seeders: 452
leechers: 271
updated:
Added ago by g3m696 ***** in Movies
Torrent Downloaded 10 times.
Info Hash: 4905C3141672D3269B042AF3CB4ECC96035CDA85


Torrent Files

Black Narcissus 1947 1080p BrRip x265 HEVCBay (Size: 446.4 MB)
  Black Narcissus 1947 1080p BrRip x265 HEVCBay 446.4 MB

Torrent Description



hevcbay.com

Code:

General
Unique ID : 332820962464646140460508552553359798660 (0xFA62FC5B9F4A39D14BB38DF621D0F184) Complete name : Black.Narcissus.1947.720p.BrRip.x265.HEVCBay.com.mkv
Format : Matroska
Format version : Version 4
File size : 446 MiB
Duration : 1 h 40 min Overall bit rate : 620 kb/s
Movie name : Black.Narcissus.1947.720p.BrRip.x265.HEVCBay.com.mkv
Encoded date : UTC 2019-02-11 00:32:38
Writing application : hevcbay
Writing library : hevcbay.com / Lavf58.22.100
Comment : Encoded by hevcbay.com
ENCODED-BY : hevcbay.com

Video ID : 1
Format : HEVC
Format/Info : High Efficiency Video Coding
Format profile : [email protected]@Main
Codec ID : V_MPEGH/ISO/HEVC
Duration : 1 h 40 min
Bit rate : 565 kb/s
Width : 982 pixels
Height : 720 pixels
Display aspect ratio : 4:3
Original display aspect ratio : 4:3 Frame rate mode : Constant
Frame rate : 24.000 FPS
Color space : YUV Chroma subsampling : 4:2:0
Bit depth : 8 bits
Bits/(Pixel*Frame) : 0.033
Stream size : 407 MiB (91%)
Writing library : Lavc58.42.102 libx265
Language : English
Default : No
Forced : No
Color range : Limited
Audio
ID : 2
Format : AAC LC SBR PS
Format/Info : Advanced Audio Codec Low Complexity with Spectral Band Replication and Parametric Stereo
Commercial name : HE-AACv2 Format settings : NBC
Codec ID : A_AAC-29
Duration : 1 h 40 min
Bit rate : 52.5 kb/s
Channel(s) : 2 channels
Channel layout : C
Sampling rate : 48.0 kHz
Frame rate : 23.438 FPS (2048 SPF)
Compression mode : Lossy
Delay relative to video : -148 ms
Stream size : 37.8 MiB (8%)
Writing library : Lavc58.42.102 libfdk_aac
Default : Yes
Forced : No

Text
ID : 3
Format : UTF-8
Codec ID : S_TEXT/UTF8
Codec ID/Info : UTF-8 Plain Text
Duration : 1 h 36 min
Bit rate : 54 b/s
Count of elements : 1070
Stream size : 38.4 KiB (0%)
Language : English
Default : Yes
Forced : No








Related Torrents

torrent name size age seed leech
639.9 MB 1 minute 341 410
1.1 GB 1 minute 288 171
1.8 GB 3 minutes 727 20
324.2 MB 3 minutes 110 360
216.1 MB 5 minutes 487 324

Sharing Widget


Download torrent
446.4 MB
seeders:1214
leechers:386
Black Narcissus 1947 1080p BrRip x265 HEVCBay



To share this torrent use the code below and insert it into comments, status messages, forum posts or your signature.

Torrent: Black Narcissus 1947 1080p BrRip x265 HEVCBay

Comments

Latest Searches